#TITLE:像你的眼睛一样;
#SUBTITLE:;
#ARTIST:Shakira;
#TITLETRANSLIT:;
#SUBTITLETRANSLIT:;
#ARTISTTRANSLIT:;
#CREDIT:;
#BANNER:eyes like yours-logo.jpg;
#BACKGROUND:۾һ.jpg;
#LYRICSPATH:;
#CDTITLE:DD.png;
#MUSIC:۾һ.mp3;
#OFFSET:0.000;
#SAMPLESTART:100.000;
#SAMPLELENGTH:12.000;
#SELECTABLE:YES;
#BPMS:0.000=126.990;
#STOPS:;
#BGCHANGES:;
// cache tags:
#FIRSTBEAT:36.000;
#LASTBEAT:359.000;
#SONGFILENAME:Songs/lan sky/like your eyes/eyes like yours.sm;
#HASMUSIC:1;
#HASBANNER:1;
#MUSICLENGTH:170.100;
// end cache tags

//---------------dance-single - Hener----------------
#NOTES:
     dance-single:
     Hener:
     Hard:
     8:
     0.729,0.739,1.000,0.082,0.226,591.000,263.000,14.000,0.000,0.000:

0000
0000
0000
0000
,
0000
0000
0000
0000
,
0000
0000
0000
0000
,
0000
0000
0000
0000
,
0000
0000
0000
0000
,
0000
0000
0000
0000
,
0000
0000
0000
0000
,
0000
0000
0000
0000
,
0000
0000
0000
0000
,
1001
0000
0010
0100
1001
0100
0010
0100
,
1001
0000
0100
1000
0101
1000
0100
0010
,
1001
0000
0000
0000
0010
0000
0100
0000
1001
0010
0100
0000
1000
0000
0100
0000
,
1001
0000
0000
0010
1001
0000
0100
0000
1001
0000
0011
0000
1001
0000
0100
0000
,
0011
0000
0101
0010
1001
0010
1001
0100
,
0101
0000
0101
1000
1001
0010
0101
0010
,
1001
0000
0101
0010
1001
0010
0101
0100
,
1010
0000
0110
0001
1010
0100
0011
0100
,
1010
0000
0110
0100
1010
0100
0011
0100
,
1010
0000
0110
0001
1010
0001
0110
0001
,
0110
0000
0011
1000
0110
0001
0110
1000
,
1100
0000
1001
0010
1100
0001
1010
0001
,
1010
0000
1001
0100
1100
0001
1010
0001
,
1010
0000
1001
0100
1010
0001
1100
0010
,
1100
0000
1001
0010
1100
0100
1001
0010
,
0101
0000
1100
0010
0110
0010
0101
1000
,
0110
0000
1100
0010
0110
0010
0101
1000
,
0110
0000
1100
0010
0110
1000
0101
0010
,
0110
0000
0101
1000
0110
0010
0101
0010
,
0110
0000
1100
0010
0110
0001
1100
0010
,
0101
0000
1001
0010
0101
1000
0101
0010
,
0101
0000
1001
0100
1001
0100
0011
1000
,
0101
0000
1001
0100
0011
1000
0011
0100
,
0011
0000
0101
1000
0101
0010
1001
0100
,
1010
0000
0011
0100
0011
1000
0110
0100
,
0011
0000
0011
0100
0110
1000
0011
0100
,
1010
0000
0110
0100
0011
0100
1010
0001
,
0110
0000
1000
0011
0100
1010
0001
0110
,
0110
0000
0000
1000
0101
0000
0010
0000
1100
0010
0001
0000
0110
0000
1000
0000
,
0110
0000
0000
0010
1100
0000
0001
0000
0110
1000
0010
0000
0101
0000
0010
0000
,
0110
0000
0000
1000
0101
0000
0010
0000
0110
0001
1000
0000
1100
0000
0001
0000
,
0110
0000
0000
1000
0101
0000
1000
0000
0110
1000
0001
0000
0110
0000
1000
0000
,
1100
0000
0000
0001
1010
0000
0010
0000
1100
0001
0010
0000
1001
0000
0010
0000
,
1010
0000
0000
0100
1001
0000
0010
0000
1010
0100
0001
0000
1100
0000
0010
0000
,
1001
0000
0000
0100
0010
0000
1100
0000
1001
0010
0100
0000
0010
0000
1001
0000
,
1100
0000
0000
0001
1010
0000
0100
0000
1010
0001
0100
0000
1010
0000
0100
0000
,
1010
0000
0000
0001
0110
0000
0001
0000
1010
0001
0100
0000
1010
0000
0001
0000
,
0110
0000
0000
1000
0011
0000
0100
0000
0110
0001
1000
0000
0110
0000
0100
0000
,
1010
0000
0000
1000
0011
0000
0100
0000
1010
0001
1000
0000
0110
0000
0100
0000
,
1010
0000
0000
1000
0011
0000
1000
0000
0110
0001
1000
0000
0110
0000
1000
0000
,
0101
0000
0000
1000
0110
0000
1000
0000
0110
0001
1000
0000
0101
0000
1000
0000
,
0110
0000
0000
0001
1100
0000
0010
0000
0101
0010
1000
0000
0101
0000
0010
0000
,
1100
0000
0000
0001
0010
0000
0101
0000
1100
0001
0010
0000
0001
0000
1100
0000
,
0101
0000
0000
0001
0110
0000
1000
0000
0101
1000
0001
0000
0110
0000
1000
0000
,
2001
0000
0001
0000
0001
3000
0001
0100
,
0021
0000
0000
0000
0001
0000
0000
0030
0001
0000
0100
0000
1001
0000
0100
0000
,
0011
1000
0011
1000
0101
1000
0011
0000
,
1001
0000
0000
0010
0101
0000
1000
0000
0011
1000
0100
0000
0011
0000
0100
0000
,
1010
0000
0000
0001
0110
0000
1000
0000
0011
1000
0100
0000
0011
0000
1000
0000
,
1010
0000
0000
0001
0110
0000
0100
0000
1010
0001
0100
0000
0110
0000
0001
0000
,
1010
0000
0000
0001
0110
0000
0100
0000
0110
0001
1000
0000
1010
0000
0001
0000
,
0110
0000
0000
1000
0011
0000
0100
0000
1010
0001
0100
0000
0110
0000
1000
0000
,
1020
0000
0000
0000
0100
0000
0000
0000
0001
0000
0000
0030
1000
0000
0100
0001
,
0120
0000
0000
0000
0001
0000
0000
0000
0100
0000
0000
0030
1000
0000
0001
0000
,
1200
0000
0000
0000
0010
0000
0000
0000
1000
0000
0000
0300
0001
0000
0010
0000
,
1002
0000
0000
0000
0010
0000
0000
0000
0100
0000
0000
0000
1000
0003
0010
0000
,
1200
0000
0000
0000
0010
0000
0000
0000
0001
0000
0000
0000
1000
0300
0000
0000
,
0012
0000
0000
0000
0100
0000
0000
0000
1000
0000
0000
0000
0010
0003
0000
0000
,
2001
0000
0000
0000
0010
0000
0000
0000
0100
0000
0000
0000
0001
3000
0000
0000
,
0210
0000
0000
0000
1000
0000
0000
0000
0010
0000
0000
0000
0001
0300
0000
0000
,
1001
1001
0000
0110
1001
0000
0001
0000
,
0101
0000
0000
1000
0010
0000
0100
0000
0100
0010
1000
0000
0010
0000
1001
0000
,
0101
0000
0000
0100
1000
0000
0010
0000
0100
1000
0011
0000
0100
0000
1001
0000
,
0101
0000
0000
0001
0010
0000
1000
0000
0100
0010
0001
0000
0100
0000
1000
0000
,
0101
0000
0000
0010
1000
0000
0010
0000
0100
1000
0011
0000
0100
0000
0101
0000
,
1010
0000
0000
0001
0100
0000
0010
0000
1000
0100
0001
0000
0100
0000
0011
0000
,
1010
0000
0000
0010
0100
0000
0001
0000
1000
0100
0011
0000
0100
0000
0110
0000
,
1010
0000
0000
0001
0100
0000
0001
0000
1010
0100
0010
0000
1000
0000
0001
0000
,
1010
0000
0000
0001
0100
0000
1000
0000
1010
0100
1010
0000
0110
0000
0011
0000
,
1100
0000
0000
0010
1001
0000
0010
0000
1100
0001
0010
0000
1001
0000
0010
0000
,
1100
0000
0000
0001
1010
0000
0010
0000
1100
0001
0010
0000
1010
0000
0001
0000
,
1100
0000
0000
0001
1010
0000
0100
0000
1010
0001
0100
0000
1010
0000
0001
0000
,
1010
0000
0000
0001
1010
0000
0100
0000
1100
0010
0001
0000
1010
0000
0100
0000
,
1010
0000
0000
0001
0110
0000
0001
0000
1010
0100
0001
0000
0110
0000
0001
0000
,
0110
0000
0000
1000
0011
0000
0100
0000
0110
0001
1000
0000
0110
0000
0100
0000
,
0110
0000
0000
0001
1000
0000
0110
0000
1000
0001
0100
0000
1000
0000
0011
0000
,
1010
0000
0000
0001
0110
0000
0100
0000
1010
0001
0100
0000
2020
0000
0000
0000
,
0000
0000
0000
0000
,
3030
0202
0000
0000
,
0000
0000
0000
0000
,
0000
0000
0000
0303
;
